Все для Drupal / Скачать бесплатно трансформеры эпоха истребления через торрент

Трансформеры: Эпоха истребления (2014)

Фильм Трансформеры: Эпоха истребления (2014) скачать бесплатно в професcиональной озвучке или посмотреть онлайн, чтобы начать просмотр нужно нажать на кнопку в плеере и спустя несколько секунд воспроизведение фильма начнется в хорошем HD (High-Definition) качестве 720p или 1080p. Напомним, что посмотреть онлайн вы можете не только на компьютере, но и на андроид (Android), iPhone и iPad. Приятного просмотра!

Скачать бесплатно трансформеры эпоха истребления через торрент один

Трансформеры: Эпоха истребления (2014) скачать бесплатно или смотреть онлайн

Слоган: "Сражаться вместе. Или погибнуть вместе"
Роли дублировали: Сергей Бурунов, Татьяна Ермилова, Иван Калинин, Никита Прозоровский, Игорь Старосельцев
Сценарий: Эрен Крюгер
Продюсер: Лоренцо Ди Бонавентура, Том ДеСанто, Йен Брайс
Оператор: Амир М. Мокри
Композитор: Стив Яблонски
Художник: Стив Купер, Шерри Даи, Джеффри Бикрофт
Монтаж: Роджер Бартон, Уильям Голденберг, Пол Рубелл
Студия: Di Bonaventura Pictures, Hasbro Inc. Ian Bryce Productions, Paramount Pictures, Tom DeSanto/Don Murphy Production
Бюджет: $210 000 000
Сборы в США: $245 439 076
Сборы в мире: + $858 614 996 = $1 104 054 072
Сборы в России: $45 176 341

Премьера (мир): 19 июня 2014
Премьера (РФ): 26 июня 2014, "Централ Партнершип" 3D

Релиз на DVD: 8 декабря 2014, "Новый Диск"
Релиз на Blu-Ray: 15 декабря 2014, "Новый Диск"

Зрители: Россия - 5.64 млн
Рейтинг MPAA: детям до 13 лет просмотр не желателен

Скачать бесплатно трансформеры эпоха истребления через торрент дваСкачать бесплатно трансформеры эпоха истребления через торрент триСкачать бесплатно трансформеры эпоха истребления через торрент четыреСкачать бесплатно трансформеры эпоха истребления через торрент пятьСкачать бесплатно трансформеры эпоха истребления через торрент шестьСкачать бесплатно трансформеры эпоха истребления через торрент семь

Скачать бесплатно трансформеры эпоха истребления через торрент восемьСкачать бесплатно трансформеры эпоха истребления через торрент девятьСкачать бесплатно трансформеры эпоха истребления через торрент десять

На нашем сайте имеется возможность смотреть фильмы онлайн в HD (High-Definition) качестве, для этого воспользуйтесь переключателем качества видео в нижнем правом углу плеера. Обратите внимание на то, что чем выше будет качество видео, тем больше времени будет занимать загрузка видео и увеличится количество передаваемого трафика.

Дата Название раздачи (ссылка) Размер Скачали
28 сентября 2017 12:10 Трансформеры: Эпоха истребления (2014) 4K | UHD 2160p | Лицензия.mkv.torrent
24,69 Gb 95 17 февраля 2016 06:56 Трансформеры: Эпоха истребления / Transformers: Age of Extinction (2014) DVD5.torrent 4,37 Gb 56 17 февраля 2016 06:56 Трансформеры: Эпоха истребления / Transformers: Age of Extinction (2014) BDRip 720p от HQCLUB | D | Лицензия.torrent

9682 kbps avg
Аудио#1: 48.0 kHz, AC3 Dolby Digital, 3/2 (L,C,R,l,r) + LFE ch.

640 kbps avg | DUB - Blu-ray CEE
Аудио#2: 48.0 kHz, AC3 Dolby Digital, 3/2 (L,C,R,l,r) + LFE ch.

384 kbps avg | R5*UKR*
Аудио#3: 48.0 kHz, AC3 Dolby Digital, 3/2 (L,C,R,l,r) + LFE ch.

640 kbps avg | Original
Видео: Идентификатор : 1 Формат : AVC Формат/Информация : Advanced V >Аудио #1: Идентификатор : 2 Формат : AC-3 Формат/Информация : Audio Coding 3 Расширение режима : CM (complete main) Параметр Endianness формата : Big Идентификатор кодека : A_AC3 Продолжительность : 2 ч. 45 м. Вид битрейта : Постоянный Битрейт : 640 Кбит/сек Каналы : 6 каналов Расположение каналов : Front: L C R, Side: L R, LFE Частота : 48,0 КГц Битовая глубина : 16 бит Метод сжатия : С потерями Размер потока : 756 Мбайт (6%) Заголовок : AC3 5.1 @ 640 kbps - DUB, Blu-ray CEE Язык : Russian Default : Да Forced : Нет
Аудио #2: Идентификатор : 3 Формат : AC-3 Формат/Информация : Audio Coding 3 Расширение режима : CM (complete main) Параметр Endianness формата : Big Идентификатор кодека : A_AC3 Продолжительность : 2 ч. 45 м. Вид битрейта : Постоянный Битрейт : 384 Кбит/сек Каналы : 6 каналов Расположение каналов : Front: L C R, Side: L R, LFE Частота : 48,0 КГц Битовая глубина : 16 бит Метод сжатия : С потерями Размер потока : 454 Мбайт (3%) Заголовок : AC3 5.1 @ 384 kbps - DUB, R5 Язык : Ukrainian Default : Нет Forced : Нет
Аудио #3: Идентификатор : 4 Формат : AC-3 Формат/Информация : Audio Coding 3 Расширение режима : CM (complete main) Параметр Endianness формата : Big Идентификатор кодека : A_AC3 Продолжительность : 2 ч. 45 м. Вид битрейта : Постоянный Битрейт : 640 Кбит/сек Каналы : 6 каналов Расположение каналов : Front: L C R, Side: L R, LFE Частота : 48,0 КГц Битовая глубина : 16 бит Метод сжатия : С потерями Размер потока : 756 Мбайт (6%) Заголовок : AC3 5.1 @ 640 kbps - Original Язык : English Default : Нет Forced : Нет

13,35 Gb 17 17 февраля 2016 06:56 Трансформеры: Эпоха истребления / Transformers: Age Of Extinction (2014) BDRip 1080p от HDClub | 3D-Video | HOU | IMAX | D | Лицензия.torrent

14300 kbps avg
Звук:
Аудио#1: Russian: 48 kHz, AC3, 3/2 (L,C,R,l,r) + LFE ch.

640.00 kbps avg [Дубляж, Blu-Ray CEE]
Аудио#2: Ukrainian: 48 kHz, AC3, 3/2 (L,C,R,l,r) + LFE ch.

384.00 kbps avg [Дубляж, DVD R5]
Аудио#3: English: 48 kHz, AC3, 3/2 (L,C,R,l,r) + LFE ch.

640.00 kbps avg
Субтитры: Русские (Forced, Full),Украинские (Forced, Full), Английские (Full, SDH, SDH-Colored)

18,83 Gb 18 17 февраля 2016 06:56 Трансформеры: Эпоха истребления / Transformers: Age of Extinction (2014) DVD9 | Лицензия.torrent 6,58 Gb 6 17 февраля 2016 06:56 Трансформеры: Эпоха истребления / Transformers: Age of Extinction (2014) BDRip-AVC от HQCLUB | IMAX | Лицензия.torrent

4310 kbps avg, 0.344 bit/pixel
Аудио #1: 48 kHz, AC3 Dolby Digital, 3/2 (L,C,R,l,r) + LFE ch.

448 kbps avg (DUB)
Аудио #2: 48 kHz, AC3 Dolby Digital, 3/2 (L,C,R,l,r) + LFE ch.

448 kbps avg (ENG)
Видео: Идентификатор : 1 Формат : AVC Формат/Информация : Advanced V >Аудио #1: Идентификатор : 2 Формат : AC-3 Формат/Информация : Audio Coding 3 Расширение режима : CM (complete main) Параметр Endianness формата : Big Идентификатор кодека : A_AC3 Продолжительность : 2 ч. 45 м. Вид битрейта : Постоянный Битрейт : 448 Кбит/сек Каналы : 6 каналов Расположение каналов : Front: L C R, Side: L R, LFE Частота : 48,0 КГц Битовая глубина : 16 бит Метод сжатия : С потерями Размер потока : 529 Мбайт (8%) Заголовок : АС3 5.1 @ 448 kbps - Dub, BD EUR Язык : Russian Default : Нет Forced : Нет
Аудио #2: Идентификатор : 3 Формат : AC-3 Формат/Информация : Audio Coding 3 Расширение режима : CM (complete main) Параметр Endianness формата : Big Идентификатор кодека : A_AC3 Продолжительность : 2 ч. 45 м. Вид битрейта : Постоянный Битрейт : 448 Кбит/сек Каналы : 6 каналов Расположение каналов : Front: L C R, Side: L R, LFE Частота : 48,0 КГц Битовая глубина : 16 бит Метод сжатия : С потерями Размер потока : 529 Мбайт (8%) Заголовок : АС3 5.1 @ 448 kbps - Original Язык : English Default : Нет Forced : Нет

6,13 Gb 14 17 февраля 2016 06:56 Трансформеры: Эпоха истребления / Transformers: Age of Extinction (2014) BDRip 1080p.torrent 11,6 Gb 23 17 февраля 2016 06:56 Трансформеры: Эпоха истребления / Transformers: Age of Extinction (2014) Blu-Ray CEE от HDClub | 2-Disc Edition | Лицензия.torrent 86,2 Gb 21 17 февраля 2016 06:56 Трансформеры: Эпоха истребления / Transformers: Age of Extinction (2014) BDRip 1080p от NNNB | IMAX.torrent 11,54 Gb 15 17 февраля 2016 06:56 Трансформеры: Эпоха истребления / Transformers: Age of Extinction (2014) HDRip от Scarabey | Лицензия.torrent

2057 kbps avg, 0.39 bit/pixel
Аудио: 48 kHz, AC3 Dolby Digital, 3/2 (L,C,R,l,r) + LFE ch.

2,9 Gb 52 17 февраля 2016 06:56 Трансформеры: Эпоха истребления / Transformers: Age of Extinction (2014) BDRip-AVC от HELLYWOOD | IMAX | Лицензия.torrent 5,99 Gb 10 17 февраля 2016 06:56 Трансформеры: Эпоха истребления / Transformers: Age of Extinction (2014) BDRip-AVC от ExKinoRay | D.torrent 5,07 Gb 3 17 февраля 2016 06:56 Трансформеры: Эпоха истребления / Transformers: Age of Extinction (2014) BDRip 720p | IMAX.torrent 7,76 Gb 15 17 февраля 2016 06:56 Трансформеры: Эпоха истребления / Transformers: Age of Extinction (2014) BDRip 720p от Leonardo and Scarabey | Лицензия.torrent 9,8 Gb 32 17 февраля 2016 06:56 Трансформеры: Эпоха истребления / Transformers: Age of Extinction (2014) BDRip 720p от NNNB | 60 fps.torrent 7,93 Gb 16 17 февраля 2016 06:56 Трансформеры: Эпоха истребления / Transformers: Age of Extinction (2014) BDRip-AVC от HELLYWOOD | Лицензия.torrent 4,78 Gb 8 17 февраля 2016 06:56 Трансформеры: Эпоха истребления / Transformers: Age of Extinction (2014) BDRip-AVC от ExKinoRay | IMAX | Лицензия.torrent 4,86 Gb 11 17 февраля 2016 06:55 Трансформеры: Эпоха истребления / Transformers: Age of Extinction (2014) BDRip 1080p от Ash61 | 3D-Video | halfOU | Лицензия.torrent 27,08 Gb 8 17 февраля 2016 06:55 Трансформеры: Эпоха истребления / Transformers: Age of Extinction (2014) BDRip-AVC от HQCLUB | Лицензия.torrent

4358 kbps avg, 0.429 bit/pixel
Аудио #1: 48 kHz, AC3 Dolby Digital, 3/2 (L,C,R,l,r) + LFE ch.

448 kbps avg (DUB)
Аудио #2: 48 kHz, AC3 Dolby Digital, 3/2 (L,C,R,l,r) + LFE ch.

448 kbps avg (ENG)
Видео: Идентификатор : 1 Формат : AVC Формат/Информация : Advanced V >Аудио #1: Идентификатор : 2 Формат : AC-3 Формат/Информация : Audio Coding 3 Расширение режима : CM (complete main) Параметр Endianness формата : Big Идентификатор кодека : A_AC3 Продолжительность : 2 ч. 45 м. Вид битрейта : Постоянный Битрейт : 448 Кбит/сек Каналы : 6 каналов Расположение каналов : Front: L C R, Side: L R, LFE Частота : 48,0 КГц Битовая глубина : 16 бит Метод сжатия : С потерями Размер потока : 529 Мбайт (8%) Заголовок : АС3 5.1 @ 448 kbps - Dub, BD EUR Язык : Russian Default : Нет Forced : Нет
Аудио #2: Идентификатор : 3 Формат : AC-3 Формат/Информация : Audio Coding 3 Расширение режима : CM (complete main) Параметр Endianness формата : Big Идентификатор кодека : A_AC3 Продолжительность : 2 ч. 45 м. Вид битрейта : Постоянный Битрейт : 448 Кбит/сек Каналы : 6 каналов Расположение каналов : Front: L C R, Side: L R, LFE Частота : 48,0 КГц Битовая глубина : 16 бит Метод сжатия : С потерями Размер потока : 529 Мбайт (8%) Заголовок : АС3 5.1 @ 448 kbps - Original Язык : English Default : Нет Forced : Нет

6,18 Gb 2 17 февраля 2016 06:55 Трансформеры: Эпоха истребления / Transformers: Age of Extinction (2014) BDRip 1080р от ExKinoRay | IMAX | Лицензия.torrent 16,37 Gb 18 17 февраля 2016 06:55 Трансформеры: Эпоха истребления / Transformers: Age of Extinction (2014) BDRip 720p от HELLYWOOD | Лицензия.torrent 14,37 Gb 6 17 февраля 2016 06:55 Трансформеры: Эпоха истребления / Transformers: Age of Extinction (2014) BDRip 720p от HDCLUB | Лицензия.torrent

9725 kbps avg
Аудио#1: Russian: 48 kHz, AC3, 3/2 (L,C,R,l,r) + LFE ch.

640.00 kbps avg |Дубляж, Blu-ray CEE|
Аудио#2: English: 48 kHz, AC3, 3/2 (L,C,R,l,r) + LFE ch.

12,94 Gb 4 17 февраля 2016 06:55 Трансформеры: Эпоха истребления / Transformers: Age of Extinction (2014) BDRip от HQ-ViDEO | Лицензия.torrent

2081 kbps avg, 23,976 fps
Аудио #1: AC3 Dolby Digital, 48 KHz.

448 kbps, 3/2 (L,C,R,l,r) + LFE ch/RUS/
Аудио #2: AC3 Dolby Digital, 48 KHz.

448 kbps, 3/2 (L,C,R,l,r) + LFE ch/ENG, скачать отдельно с disk.yandex.ru/

2,93 Gb 29 17 февраля 2016 06:55 Трансформеры: Эпоха истребления / Transformers: Age of Extinction (2014) BDRip 1080p от HQ-ViDEO | Лицензия.torrent

16896 kbps avg, 23,976 fps
Аудио #1: AC3 Dolby Digital, 48 KHz.

640 kbps, 3/2 (L,C,R,l,r) + LFE ch/RUS/
Аудио #2: AC3 Dolby Digital, 48 KHz.

640 kbps, 3/2 (L,C,R,l,r) + LFE ch/ENG/

20,97 Gb 15 17 февраля 2016 06:55 Трансформеры: Эпоха истребления / Transformers: Age of Extinction (2014) BDRip-AVC | iTunes Russia.torrent 4,73 Gb 16 17 февраля 2016 06:55 Трансформеры: Эпоха истребления / Transformers: Age of Extinction (2014) BDRip 1080p | 3D-Video | HOU | iTunes Russia.torrent 15,03 Gb 8 17 февраля 2016 06:55 Трансформеры: Эпоха истребления / Transformers: Age of Extinction (2014) BDRip 1080p | iTunes Russia.torrent 21,38 Gb 10 17 февраля 2016 06:55 Трансформеры: Эпоха истребления / Transformers: Age of Extinction (2014) BDRip от Twi7ter | IMAX | iTunes.torrent

1137 kbps avg, 0.18 bit/pixel
Аудио: 48 kHz, AC3 Dolby Digital, 2/0 (L,R) ch.

1,47 Gb 100 17 февраля 2016 06:55 Трансформеры: Эпоха истребления / Transformers: Age of Extinction (2014) BDRip от Twi7ter | IMAX | iTunes.torrent

1502 kbps avg, 0.23 bit/pixel
Аудио: 48 kHz, AC3 Dolby Digital, 3/2 (L,C,R,l,r) + LFE ch.

Скачать фильм формат mp4 из вконтакте
Взрослое видео смотреть онлайн бесплатно 21
Сценарий кукольного спектакля для дошкольников скачать бесплатно
Приколы видео реклама смотреть бесплатно
Упражнения с гантелями видео скачать бесплатно